Jedyny taki katalog polskich torrentów w sieci. Najlepsze torrenty w jednym miejscu.

Korzystanie ze strony jest darmowe. W przeciwieństwie do konkurencji nie kasujemy kont użytkowników bez ich wyraźnej prośby.


Torrent: Przeciw Wranglowi-Sluzhili dva tovarishcha (1968)[BRRip 1080p x264 by alE13 AC3][Napisy PL/Eng][Rus]

Przeciw Wranglowi-Sluzhili dva tovarishcha (1968)[BRRip 1080p x264 by alE13 AC3][Napisy PL/Eng][Rus] torrent
Dodał: alE13
14.09.2017 08:16
Kategoria: Wojenne

Rozmiar: 7.81 GB
Seed'ów: 0
Leecher'ów: 1
Pobrań: 0

Kondycja:
 


» Komentarze [0]
» Obserwuj
» Zgłoś plik
[img]https://i.imgur.com/6D24l4n.jpg[/img]

http://www.imdb.com/title/tt0063615/
http://www.filmweb.pl/film/Przeciw+Wranglowi-1968-101291

Plik zawiera Sample.

reżyseria: Yevgeni Karelov
scenariusz: Yuli Dunsky,Valeri Frid
gatunek: Wojenny,Komedia obycz.
produkcja: ZSRR
premiera: 21-10-1968
muzyka: Jewgienij Pticzkin
zdjęcia: Mikhail Ardabyevsky,Viktor Belokopytov
czas: 1h 34min

opis:

Two soldiers become best friends during the Civil War in Russia in the 1920's.

Jest rok 1920. Trwa wojna domowa w Rosji. W ręce czerwonych trafia zdobyczna kamera filmowa - nowiutka,
francuska Pathé. Sztab decyduje się użyć jej do wykonania zdjęć lotniczych. Były fotograf, żołnierz
Andriej Niekrasow (Oleg Jankowski), zostaje mianowany kamerzystą. Pod "nadzorem" Iwana Karjakina (Rolan Bykov),
który niedawno został zdegradowany za lekceważenie dyscypliny wojskowej, Niekrasow przystępuje do wykonania zadania.

[img]https://i.imgur.com/aW5ToMZ.jpg[/img]
[img]https://i.imgur.com/lLH6xXy.jpg[/img]
[img]https://i.imgur.com/OeYuEaz.jpg[/img]
[img]https://i.imgur.com/MKXk2FX.jpg[/img]

obsada:

Vladimir Vysotskiy, Oleg Yankovskiy, Rolan Bykov, Anatoliy Papanov

dane techniczne:

Sluzhili dva tovarishcha (1968)-alE13.mkv
Format : Matroska
Format version : Version 4 / Version 2
File size : 7.76 GiB
Duration : 1 h 34 min
Overall bit rate : 11.7 Mb/s
Movie name : Sluzhili dva tovarishcha (1968)-alE13
Encoded date : UTC 2017-09-14 05:49:45
Writing application : mkvmerge v8.1.0 ('Psychedelic Postcard') 64bit
Writing library : libebml v1.3.1 + libmatroska v1.4.2
Cover : Yes
Attachments : Cover.jpg

Video
ID : 1
Format : MPEG-4 Visual
Format settings, BVOP : 2
Format settings, QPel : No
Format settings, GMC : No warppoints
Format settings, Matrix : Default (H.263)
Muxing mode : Packed bitstream
Codec ID : V_MS/VFW/FOURCC / DX50
Codec ID/Hint : DivX 5
Duration : 1 h 33 min
Bit rate : 11.0 Mb/s
Nominal bit rate : 6 896 kb/s
Width : 1 920 pixels
Height : 816 pixels
Display aspect ratio : 2.35:1
Frame rate mode : Constant
Frame rate : 25.000 FPS
Color space : YUV
Chroma subsampling : 4:2:0
Bit depth : 8 bits
Scan type : Progressive
Compression mode : Lossy
Bits/(Pixel*Frame) : 0.282
Stream size : 7.17 GiB (92%)
Title : Sluzhili dva tovarishcha (1968)-alE13
Writing library : DivX 2682
Default : Yes
Forced : No

Audio #1
ID : 2
Format : AC-3
Format/Info : Audio Coding 3
Format settings, Endianness : Big
Codec ID : A_AC3
Duration : 1 h 32 min
Bit rate mode : Constant
Bit rate : 448 kb/s
Channel(s) : 6 channels
Channel positions : Front: L C R, Side: L R, LFE
Sampling rate : 48.0 kHz
Frame rate : 31.250 FPS (1536 SPF)
Bit depth : 16 bits
Compression mode : Lossy
Delay relative to video : 1 s 595 ms
Stream size : 298 MiB (4%)
Title : Sluzhili dva tovarishcha (1968)-alE13_AC3_5.1ch
Language : Russian
Service kind : Complete Main
Default : Yes
Forced : No

Audio #2
ID : 3
Format : AC-3
Format/Info : Audio Coding 3
Format settings, Endianness : Big
Codec ID : A_AC3
Duration : 1 h 32 min
Bit rate mode : Constant
Bit rate : 448 kb/s
Channel(s) : 1 channel
Channel positions : Front: C
Sampling rate : 48.0 kHz
Frame rate : 31.250 FPS (1536 SPF)
Bit depth : 16 bits
Compression mode : Lossy
Delay relative to video : 1 s 596 ms
Stream size : 298 MiB (4%)
Title : Sluzhili dva tovarishcha (1968)-alE13_AC3_2ch
Language : Russian
Service kind : Complete Main
Default : No
Forced : No

Text #1
ID : 4
Format : UTF-8
Codec ID : S_TEXT/UTF8
Codec ID/Info : UTF-8 Plain Text
Duration : 1 h 32 min
Bit rate : 39 b/s
Count of elements : 566
Stream size : 26.5 KiB (0%)
Title : Sluzhili dva tovarishcha (1968)-alE13_SRT
Language : Polish
Default : Yes
Forced : No

Text #2
ID : 5
Format : UTF-8
Codec ID : S_TEXT/UTF8
Codec ID/Info : UTF-8 Plain Text
Duration : 1 h 32 min
Bit rate : 44 b/s
Count of elements : 841
Stream size : 30.4 KiB (0%)
Title : Sluzhili dva tovarishcha (1968)-alE13
Language : English
Default : No
Forced : No

Menu
00:00:00.000 : en:Chapter 1
00:05:34.800 : en:Chapter 2
00:10:59.400 : en:Chapter 3
00:13:30.000 : en:Chapter 4
00:19:55.800 : en:Chapter 5
00:25:58.200 : en:Chapter 6
00:32:47.400 : en:Chapter 7
00:39:34.200 : en:Chapter 8
00:43:46.200 : en:Chapter 9
00:47:34.800 : en:Chapter 10
00:56:01.800 : en:Chapter 11
01:02:21.000 : en:Chapter 12
01:09:46.800 : en:Chapter 13
01:15:00.600 : en:Chapter 14
01:20:13.200 : en:Chapter 15
01:23:58.200 : en:Chapter 16
Ocena użytkowników Help
Działa(0) | Fake(0) | Nie działa(0) | Wymagane hasło(0) | Wirus(0)
Statystyki seed/leech Ostatnio aktualizowane: 2017-12-28 19:44:37 [Aktualizuj]
Napisano: 26.05.2018 03:49
 
Nikt jeszcze nie skomentował tego torrenta... Może Ty to zrobisz?
Oświadczenie: Pliki prezentowane w katalogu nie znajdują się na serwerach wortalu. Użytkownicy zezwolili na ich udostępnienie. Administrator serwisu BitNova.info oraz właściciel serwera nie może ponieść konsekwencji za to co użytkownicy udostępniają i publikują. Pamiętaj! Nie możesz używać tego serwisu do rozpowszechniania lub ściągania materiałów do których nie masz odpowiednich praw lub licencji. Użytkownicy są odpowiedzialni za przestrzeganie tych zasad.

(Disclaimer: None files presented in the directory aren't hosted on servers vortal. Users allow their release. The administrator of site BitNova.info and owner of the server can not be held responsible for what its users post, or any other actions of its users. You may not use this site to distribute or download any material when you do not have the legal rights to do so. It is your own responsibility to adhere to these terms.)
» Zgłaszanie nadużyć / Abuse