Jedyny taki katalog polskich torrentów w sieci. Najlepsze torrenty w jednym miejscu.

Korzystanie ze strony jest darmowe. W przeciwieństwie do konkurencji nie kasujemy kont użytkowników bez ich wyraźnej prośby.


Torrent: PolandJa *2017* [720P VODRIP AC3 5 1 H264] [ENTER1973] [FILM POLSKI]

PolandJa *2017* [720P VODRIP AC3 5 1 H264] [ENTER1973] [FILM POLSKI] torrent
Dodał: genek8
17.06.2017 11:54
Kategoria: Komedia

Rozmiar: 2.08 GB
Seed'ów: (?)
Leecher'ów: (?)
Pobrań: (?)

Kondycja:
 


» Komentarze [0]
» Obserwuj
» Zgłoś plik
Tytuł: PolandJa
Produkcja: Polska
Gatunek: Komedia obycz.
Czas trwania: 99 min.
Premiera: 17 lutego 2017 (Polska), 12 lutego 2017 (świat)
Reżyseria: Cyprian T. Olencki
Scenariusz: Cyprian T. Olencki, Dawid Kornaga, Maria Wojtyszko, Jakub Nieścierow, Sławomir Krawczyński

Najdziksze historie zdarzają się ludziom w najmniej odpowiednich momentach. "PolandJa" to pełna humoru opowieść o tym, jak (nie) radzimy sobie z rzeczywistością, która nas otacza. Akcja filmu rozgrywa się w ciągu 24 godzin, podczas których bohaterowie przeżywają pasmo zabawnych perypetii, radykalnie zmieniających ich życie. Jest ostro, zabawnie i wzruszająco.

Izabela Kuna .... Jola
Grzegorz Małecki .... Sobkowiak
Jakub Gierszał .... Artur
Paweł Domagała .... Kaczor
Marek Bukowski .... Policjant
Jacek Beler .... Złodziej
Roma Gąsiorowska .... Iwo
Michał Żurawski .... Eryk
Format : MPEG-4
Format profile : Base Media
Codec ID : isom (isom/iso2/avc1/mp41)
File size : 2.08 GiB
Duration : 1 h 39 min
Overall bit rate : 2 995 kb/s
Encoded date : UTC 2017-06-16 14:56:55
Tagged date : UTC 2017-06-16 14:56:55
Writing application : Lavf54.63.104

Video
ID : 1
Format : AVC
Format/INFO : Advanced Video Codec
Format profile : Main@L3.1
Format settings, CABAC : Yes
Format settings, ReFrames : 1 frame
Format settings, GOP : N=1
Codec ID : avc1
Codec ID/INFO : Advanced Video Coding
Duration : 1 h 39 min
Bit rate : 2 500 kb/s
Width : 1 280 pixels
Height : 720 pixels
Display aspect ratio : 16:9
Frame rate mode : Constant
Frame rate : 25.000 FPS
Color space : YUV
Chroma subsampling : 4:2:0
Bit depth : 8 bits
Scan type : Progressive
Bits/(Pixel*Frame) : 0.109
Stream size : 1.72 GiB (83%)
Writing library : x264 core 129
Encoding settings : cabac=1 / ref=1 / deblock=1:0:0 / analyse=0x1:0x131 / me=dia / subme=2 / psy=1 / psy_rd=1.00:0.00 / mixed_ref=0 / me_range=16 / chroma_me=1 / trellis=0 / 8x8dct=0 / cqm=0 / deadzone=21,11 / fast_pskip=1 / chroma_qp_offset=0 / threads=4 / lookahead_threads=1 / sliced_threads=0 / nr=0 / decimate=1 / interlaced=0 / bluray_compat=0 / constrained_intra=0 / bframes=0 / weightp=2 / keyint=250 / keyint_min=25 / scenecut=40 / intra_refresh=0 / rc_lookahead=40 / rc=abr / mbtree=1 / bitrate=2500 / ratetol=1.0 / qcomp=0.60 / qpmin=10 / qpmax=51 / qpstep=4 / ip_ratio=1.41 / aq=1:1.00
Encoded date : UTC 2017-06-16 14:56:55
Tagged date : UTC 2017-06-16 14:56:55

Audio
ID : 2
Format : AC-3
Format/INFO : Audio Coding 3
Mode extension : CM (complete main)
Format settings, Endianness : Big
Codec ID : ac-3
Duration : 1 h 39 min
Bit rate mode : Constant
Bit rate : 512 kb/s
Channel(s) : 6 channels
Channel positions : Front: L C R, Side: L R, LFE
Sampling rate : 48.0 kHz
Frame rate : 31.250 FPS (1536 spf)
Bit depth : 16 bits
Compression mode : Lossy
Stream size : 364 MiB (17%)
Default : Yes
Alternate group : 1
Encoded date : UTC 2017-06-16 14:56:55
Tagged date : UTC 2017-06-16 14:56:55
Ocena użytkowników Help
Działa(0) | Fake(0) | Nie działa(0) | Wymagane hasło(0) | Wirus(0)
Statystyki seed/leech Ostatnio aktualizowane: 2018-04-27 18:39:46 [Aktualizuj]
Napisano: 27.05.2018 19:10
 
Nikt jeszcze nie skomentował tego torrenta... Może Ty to zrobisz?
Oświadczenie: Pliki prezentowane w katalogu nie znajdują się na serwerach wortalu. Użytkownicy zezwolili na ich udostępnienie. Administrator serwisu BitNova.info oraz właściciel serwera nie może ponieść konsekwencji za to co użytkownicy udostępniają i publikują. Pamiętaj! Nie możesz używać tego serwisu do rozpowszechniania lub ściągania materiałów do których nie masz odpowiednich praw lub licencji. Użytkownicy są odpowiedzialni za przestrzeganie tych zasad.

(Disclaimer: None files presented in the directory aren't hosted on servers vortal. Users allow their release. The administrator of site BitNova.info and owner of the server can not be held responsible for what its users post, or any other actions of its users. You may not use this site to distribute or download any material when you do not have the legal rights to do so. It is your own responsibility to adhere to these terms.)
» Zgłaszanie nadużyć / Abuse