Jedyny taki katalog polskich torrentów w sieci. Najlepsze torrenty w jednym miejscu.

Korzystanie ze strony jest darmowe. W przeciwieństwie do konkurencji nie kasujemy kont użytkowników bez ich wyraźnej prośby.


Torrent: Ucieczka na Atenę-Escape to Athena (1979)[BRRip.1080p.x265-HEVC by alE13 AC3][Lektor i Napisy PL/Eng][Eng]

Ucieczka na Atenę-Escape to Athena (1979)[BRRip.1080p.x265-HEVC by alE13 AC3][Lektor i Napisy PL/Eng][Eng] torrent
Dodał: alE13
09.05.2017 17:29
Kategoria: Wojenne

Rozmiar: 5.36 GB
Seed'ów: 1
Leecher'ów: 1
Pobrań: 0

Kondycja:
 


» Komentarze [2]
» Obserwuj
» Zgłoś plik
User image

http://www.filmweb.pl/film/Ucieczka+na+Aten%C4%99-1979-4386
http://www.imdb.com/title/tt0079117/

reżyseria: George P. Cosmatos
scenariusz: Edward Anhalt,Richard S. Lochte
gatunek: Przygodowy,Wojenny
produkcja: Wielka Brytania
premiera: 16-02-1979
muzyka: Lalo Schifrin
zdjęcia: Gilbert Taylor
czas: 01:59:17

opis:

During World War II, the prisoners of a German camp on a Greek island are trying to escape.
They don't want only their freedom, but they also seek for an ineffable treasure hidden
in a monastery at the top of the island's mountain.

Major Otto Hecht jest komendantem obozu jenieckiego na terenie Grecji, jeńcy mają zajęcie, trudnią
się archeologią co wykopią to oddają majorowi albo zakopują z powrotem. Do obozu trafia panienka
z kabaretu wraz ze swoim partnerem, którzy zostali zestrzeleni w drodze na występ dla żołnierzy
amerykańskich. W miasteczku zaś działa grecki ruch oporu, a jego dowódca ma do wykonania pewne
ważne zadanie.

User image
User image
User image
User image

obsada:

Roger Moore, Telly Savalas, David Niven, Claudia Cardinale, Stefanie Powers

dane techniczne:

Escape to Athena (1979)-alE13 .mkv
Format : Matroska
Format version : Version 4 / Version 2
File size : 5.29 GiB
Duration : 1h 59mn
Overall bit rate : 6 353 Kbps
Movie name : Escape to Athena (1979)-alE13
Encoded date : UTC 2016-11-02 06:33:13
Writing application : mkvmerge v8.1.0 ('Psychedelic Postcard') 64bit
Writing library : libebml v1.3.1 + libmatroska v1.4.2
Attachements : cover.jpg
DURATION : 01:59:06.707000000
NUMBER_OF_FRAMES : 969
NUMBER_OF_BYTES : 36454
_STATISTICS_WRITING_APP : mkvmerge v8.1.0 ('Psychedelic Postcard') 64bit
_STATISTICS_WRITING_DATE_UT : 2016-11-02 06:33:13
_STATISTICS_TAGS : BPS DURATION NUMBER_OF_FRAMES NUMBER_OF_BYTES

Video
ID : 1
Format : HEVC
Format/Info : High Efficiency Video Coding
Format profile : Main@L4@Main
Codec ID : V_MPEGH/ISO/HEVC
Duration : 1h 59mn
Bit rate : 5 331 Kbps
Width : 1 920 pixels
Height : 1 080 pixels
Display aspect ratio : 16:9
Frame rate mode : Constant
Frame rate : 24.000 fps
Color space : YUV
Chroma subsampling : 4:2:0
Bit depth : 8 bits
Bits/(Pixel*Frame) : 0.107
Stream size : 4.44 GiB (84%)
Title : Escape to Athena (1979)-alE13
Default : Yes
Forced : No

Audio #1
ID : 2
Format : AC-3
Format/Info : Audio Coding 3
Mode extension : CM (complete main)
Format settings, Endianness : Big
Codec ID : A_AC3
Duration : 1h 59mn
Bit rate mode : Constant
Bit rate : 640 Kbps
Channel(s) : 2 channels
Channel positions : Front: L R
Sampling rate : 48.0 KHz
Compression mode : Lossy
Stream size : 546 MiB (10%)
Title : Escape to Athena (1979)-alE13_AC3
Language : English
Default : No
Forced : No

Audio #2
ID : 3
Format : AC-3
Format/Info : Audio Coding 3
Mode extension : CM (complete main)
Format settings, Endianness : Big
Codec ID : A_AC3
Duration : 1h 59mn
Bit rate mode : Constant
Bit rate : 256 Kbps
Channel(s) : 2 channels
Channel positions : Front: L R
Sampling rate : 48.0 KHz
Compression mode : Lossy
Delay relative to video : 2s 720ms
Stream size : 218 MiB (4%)
Title : Escape to Athena (1979)-alE13
Language : Polish
Default : Yes
Forced : No

Text #1
ID : 4
Format : VobSub
Muxing mode : zlib
Codec ID : S_VOBSUB
Codec ID/Info : Picture based subtitle format used on DVDs
Title : Escape to Athena (1979)-alE13
Language : Polish
Default : Yes
Forced : No

Text #2
ID : 5
Format : UTF-8
Codec ID : S_TEXT/UTF8
Codec ID/Info : UTF-8 Plain Text
Title : Escape to Athena (1979)-alE13
Language : Polish
Default : No
Forced : No

Text #3
ID : 6
Format : VobSub
Muxing mode : zlib
Codec ID : S_VOBSUB
Codec ID/Info : Picture based subtitle format used on DVDs
Title : Escape to Athena (1979)-alE13
Language : English
Default : No
Forced : No

Text #4
ID : 7
Format : UTF-8
Codec ID : S_TEXT/UTF8
Codec ID/Info : UTF-8 Plain Text
Title : Escape to Athena (1979)-alE13
Language : English
Default : No
Forced : No

Menu
00:00:00.000 : en:Chapter 1
00:12:51.833 : en:Chapter 2
00:20:38.166 : en:Chapter 3
00:29:25.458 : en:Chapter 4
00:39:01.458 : en:Chapter 5
00:42:56.458 : en:Chapter 6
00:54:58.416 : en:Chapter 7
01:08:25.666 : en:Chapter 8
01:16:06.916 : en:Chapter 9
01:31:41.666 : en:Chapter 10
01:39:20.500 : en:Chapter 11
01:50:32.333 : en:Chapter 12
Ocena użytkowników Help
Działa(0) | Fake(0) | Nie działa(0) | Wymagane hasło(0) | Wirus(0)
Statystyki seed/leech Ostatnio aktualizowane: 2017-09-27 19:49:40 [Aktualizuj]
krzysztofes78
krzysztofes78
Napisano: 2017-05-10 18:41
 
Witam, czy szanowna koleżanka posiada może w swojej kolekcji filmy Winnetou?
Oczywiście mam na myśli materiał w dobrej jakości. Pozdrawiam!!!
alE13
alE13
Napisano: 2017-05-16 03:13
 
Tak posiadam, alE na razie nie wstawię , jakieś pół roku temu wstawiałam,całą serię.
Oświadczenie: Pliki prezentowane w katalogu nie znajdują się na serwerach wortalu. Użytkownicy zezwolili na ich udostępnienie. Administrator serwisu BitNova.info oraz właściciel serwera nie może ponieść konsekwencji za to co użytkownicy udostępniają i publikują. Pamiętaj! Nie możesz używać tego serwisu do rozpowszechniania lub ściągania materiałów do których nie masz odpowiednich praw lub licencji. Użytkownicy są odpowiedzialni za przestrzeganie tych zasad.

(Disclaimer: None files presented in the directory aren't hosted on servers vortal. Users allow their release. The administrator of site BitNova.info and owner of the server can not be held responsible for what its users post, or any other actions of its users. You may not use this site to distribute or download any material when you do not have the legal rights to do so. It is your own responsibility to adhere to these terms.)
» Zgłaszanie nadużyć / Abuse