Jedyny taki katalog polskich torrentów w sieci. Najlepsze torrenty w jednym miejscu.

Korzystanie ze strony jest darmowe. W przeciwieństwie do konkurencji nie kasujemy kont użytkowników bez ich wyraźnej prośby.

Torrent: Poprawczak - Detention *2010* [DVDRip.XviD] [Lektor PL]

Poprawczak - Detention *2010* [DVDRip.XviD] [Lektor PL] torrent
Dodał: victor123
12.01.2013 17:05
Kategoria: Filmy DivX/XviD

Rozmiar: 700.03 MB
Seed'ów: 6
Leecher'ów: 16
Pobrań: 8

Kondycja:
 
Poprawczak - Detention *2010* [DVDRip.XviD] [Lektor PL]

produkcja: USA
premiera: 15 stycznia 2010 (świat)
reżyseria: James D.R. Hickox
scenariusz: James D.R. Hickox, Stephen Johnston
czas trwania: 1 godz. 20 min.
gatunek: Horror

Opis:

Grupa gimnazjalistów za karę zostaje w szkole po lekcjach. Nastolatki nie zdają sobie sprawy, że za chwilę przeżyją koszmar. Ich nauczyciel (David Carradine) wychodzi z klasy i znika w tajemniczych okolicznościach, zaś dziwna burza powoduje przerwę w dopływie prądu. Cała szkoła pogrąża się w ciemnościach.
Uwięzieni w budynku młodzi ludzie spotykają szereg duchów, które odsłaniają przed nimi przerażającą historię ich gimnazjum.

Obsada:

David Carradine...Dyrektor Hoskins
Zelda Williams...Sara
Thomas Calabro...Trener L
Billy Aaron Brown...Jack
Rachel Sterling...Mimi
Preston Jones...Paul
Michael Mitchell...Sam
Lil J...T-Loc
Mo...Jason Gretch
John Capodice...Robotnik

Dane techniczne:

Format : AVI
Format/Info : Audio Video Interleave
File size : 700 MiB
Duration : 1h 20mn
Overall bit rate mode : Variable
Overall bit rate : 1 216 Kbps
Writing application : VirtualDubMod 1.5.10.2 (build 2540/release)
Writing library : VirtualDubMod build 2540/release

Video
ID : 0
Format : MPEG-4 Visual
Format profile : Advanced Simple@L5
Format settings, BVOP : 1
Format settings, QPel : No
Format settings, GMC : No warppoints
Format settings, Matrix : Default (H.263)
Codec ID : XVID
Codec ID/Hint : XviD
Duration : 1h 20mn
Bit rate : 1 077 Kbps
Width : 576 pixels
Height : 432 pixels
Display aspect ratio : 4:3
Frame rate : 25.000 fps
Color space : YUV
Chroma subsampling : 4:2:0
Bit depth : 8 bits
Scan type : Progressive
Compression mode : Lossy
Bits/(Pixel*Frame) : 0.173
Stream size : 620 MiB (89%)
Writing library : XviD 1.2.1 (UTC 2008-12-04)

Audio
ID : 1
Format : MPEG Audio
Format version : Version 1
Format profile : Layer 3
Mode : Joint stereo
Mode extension : MS Stereo
Codec ID : 55
Codec ID/Hint : MP3
Duration : 1h 20mn
Bit rate mode : Variable
Bit rate : 128 Kbps
Channel(s) : 2 channels
Sampling rate : 48.0 KHz
Compression mode : Lossy
Stream size : 72.9 MiB (10%)
Alignment : Aligned on interleaves
Interleave, duration : 24 ms (0.60 video frame)
Interleave, preload duration : 472 ms
Writing library : LAME3.90.
Encoding settings : -m j -V 4 -q 2 -lowpass 17.6 --abr 128
Ocena użytkowników Help
Działa(0) | Fake(0) | Nie działa(0) | Wymagane hasło(0) | Wirus(0)
Tracker głowny http://fr33dom.h33t.com:3310/announce
Pozostałe trackery
[Sprawdź statystyki]
http://fr33dom.h33t.com:3310/announce
http://tracker.torrenty.org:6969/announce
Pliki w torrencie
3 plików
(2801 części po 256.00 KB)
Poprawczak.2010.avi (700.03 MB)
DARMOCHA BEZ LIMITOW!.url (0.05 KB)
Bez Kitu!!!.txt (3.35 KB)
Statystyki seed/leech Ostatnio aktualizowane: 2013-01-12 17:05:36 [Aktualizuj]
Torrent stworzony 12.01.2013 12:09 w ruTorrent (PHP Class - Adrien Gibrat) z kodowaniem
Napisano: 27.11.2014 06:28
 
Nikt jeszcze nie skomentował tego torrenta... Może Ty to zrobisz?
Oświadczenie: Pliki prezentowane w katalogu nie znajdują się na serwerach wortalu. Użytkownicy zezwolili na ich udostępnienie. Administrator serwisu BitNova.info oraz właściciel serwera nie może ponieść konsekwencji za to co użytkownicy udostępniają i publikują. Pamiętaj! Nie możesz używać tego serwisu do rozpowszechniania lub ściągania materiałów do których nie masz odpowiednich praw lub licencji. Użytkownicy są odpowiedzialni za przestrzeganie tych zasad.

(Disclaimer: None files presented in the directory aren't hosted on servers vortal. Users allow their release. The administrator of site BitNova.info and owner of the server can not be held responsible for what its users post, or any other actions of its users. You may not use this site to distribute or download any material when you do not have the legal rights to do so. It is your own responsibility to adhere to these terms.)
» Zgłaszanie nadużyć / Abuse