Jedyny taki katalog polskich torrentów w sieci. Najlepsze torrenty w jednym miejscu.

Korzystanie ze strony jest darmowe. W przeciwieństwie do konkurencji nie kasujemy kont użytkowników bez ich wyraźnej prośby.


Torrent: Zagubieni w kosmosie - Lost in Space *1998* [BDRip.XviD adrunrl] [Lektor PL]

Zagubieni w kosmosie - Lost in Space *1998* [BDRip.XviD adrunrl] [Lektor PL] torrent
Dodał: adrunrl
18.11.2012 11:51
Kategoria: Sci-Fi

Rozmiar: 1.42 GB
Seed'ów: 0
Leecher'ów: 0
Pobrań: 0

Kondycja:
 


» Komentarze [0]
» Obserwuj
» Zgłoś plik
gatunek: Przygodowy, Sci-Fi
produkcja: USA, Wielka Brytania
premiera: 31 grudnia 1998 (Polska) 3 kwietnia 1998 (świat)
reżyseria: Stephen Hopkins
scenariusz: Akiva Goldsman

Niedaleka przyszłość. Naturalne zasoby Ziemi uległy wyczerpaniu i jedyną możliwością uratowania rodzaju ludzkiego są prznosiny na inną planetę. Naukowcy budują wrota, przez które można się poruszać szybciej niż światło, jednak tylko wtedy, gdy istnieją drugie wrota u celu podróży. Postanowiono więc wysłać ekspedycję - rodzinę Robinsonów na odległa planetę, aby tam zbudowali drugie wrota. Rejs zostaje jednak sabotowany.

Informacje o pliku:

========================================
Format : AVI
Format/Info : Audio Video Interleave
Format profile : OpenDML
File size : 1.41 GiB
Duration : 2h 5mn
Overall bit rate : 1 615 Kbps
Writing application : Lavf51.12.1

Video
ID : 0
Format : xvid
Codec ID : xvid
Duration : 2h 5mn
Bit rate : 1 377 Kbps
Width : 720 pixels
Height : 304 pixels
Display aspect ratio : 2.35:1
Frame rate : 23.976 fps
Bits/(Pixel*Frame) : 0.262
Stream size : 1.20 GiB (85%)

Audio
ID : 1
Format : MPEG Audio
Format version : Version 1
Format profile : Layer 3
Mode : Joint stereo
Mode extension : MS Stereo
Codec ID : 55
Codec ID/Hint : MP3
Duration : 2h 5mn
Bit rate mode : Constant
Bit rate : 224 Kbps
Channel(s) : 2 channels
Sampling rate : 48.0 KHz
Compression mode : Lossy
Stream size : 200 MiB (14%)
Alignment : Aligned on interleaves
Interleave, duration : 24 ms (0.58 video frame)
Writing library : LAME3.97
========================================

Screen z filmu:

http://i1088.photobucket.com/albums/i330/adrunrl2004/Zagubieniwkosmosie1998.jpg

Plik sample znajduje się w torrencie.
Ściągnij go pierwszego i zobacz jakość obrazu i dźwięku.
Ocena użytkowników Help
Działa(0) | Fake(0) | Nie działa(0) | Wymagane hasło(0) | Wirus(0)
Statystyki seed/leech Ostatnio aktualizowane: 2018-04-13 19:57:43 [Aktualizuj]
Napisano: 23.05.2018 07:13
 
Nikt jeszcze nie skomentował tego torrenta... Może Ty to zrobisz?
Oświadczenie: Pliki prezentowane w katalogu nie znajdują się na serwerach wortalu. Użytkownicy zezwolili na ich udostępnienie. Administrator serwisu BitNova.info oraz właściciel serwera nie może ponieść konsekwencji za to co użytkownicy udostępniają i publikują. Pamiętaj! Nie możesz używać tego serwisu do rozpowszechniania lub ściągania materiałów do których nie masz odpowiednich praw lub licencji. Użytkownicy są odpowiedzialni za przestrzeganie tych zasad.

(Disclaimer: None files presented in the directory aren't hosted on servers vortal. Users allow their release. The administrator of site BitNova.info and owner of the server can not be held responsible for what its users post, or any other actions of its users. You may not use this site to distribute or download any material when you do not have the legal rights to do so. It is your own responsibility to adhere to these terms.)
» Zgłaszanie nadużyć / Abuse